เข้าสู่ระบบ
เข้าสู่ระบบ หากยังไม่เป็นสมาชิก?ลงทะเบียน

Social Login

(BD-M2TS) Kanon 2006 01-24 (BD 1920x1080 AVC PCM AC-3)

9
ตอบกลับ
329
ดู
[คัดลอกลิงก์]

2

กระทู้

3

โพสต์

110

เครดิต

Junior

Rank: 2

เครดิต
110

BAKA!! Newbiz

แก้ไขครั้งสุดท้ายโดย pakfron เมื่อ 2018-2-14 20:18

Kanon.full.417870.jpg

เรื่องย่อ

เรื่องราวของ ไอซาว่า ยูอิจิ เด็กหนุ่มผู้ซึ่งมีเหตุผลบางอย่างในครอบครัว ทำให้ต้องย้ายเข้ามาอยู่ในเมืองทางเหนือ เมืองในความทรงจำซึ่งเขาเคยแวะมาอาศัยอยู่ แต่ไม่รู้ด้วยเพราะสาเหตุใด ทำให้เขาไม่กลับมาที่นี่อีกเลยตลอดเวลา 7 ปี และ ความทรงจำเมื่อ 7 ปี ของเขาก็เหมือนถูกปิดผนึกไว้แต่การกลับมาในครั้งนี้ ความทรงจำในอดีตที่ถูกหิมะกลบฝังให้เลือนหายไป กำลังจะถูกเปิดเผยพร้อมด้วยคำสัญญาที่เคยให้ไว้ และ โชคชะตาก็ชักนำเขาให้มาพบกับเด็กสาวทั้งห้าคนที่เขาเคยพบในเมืองแห่งนี้ เรื่องราวความทรงจำและคำสัญญาในอดีตของยูอิจิ



General
ID : 1 (0x1)
Complete name : G:\(ShiRaRi) Kanon 01 (BD 1920x1080 AVC PCM AC-3).m2ts
Format : BDAV
Format/Info : Blu-ray Video
File size : 5.54 GiB
Duration : 24 min
Overall bit rate mode : Variable
Overall bit rate : 32.7 Mb/s
Maximum Overall bit rate : 35.5 Mb/s

Video
ID : 4113 (0x1011)
Menu ID : 1 (0x1)
Format : AVC
Format/Info : Advanced Video Codec
Format profile : [email protected]
Format settings, CABAC : Yes
Format settings, ReFrames : 2 frames
Codec ID : 27
Duration : 24 min
Bit rate mode : Variable
Width : 1 920 pixels
Height : 1 080 pixels
Display aspect ratio : 16:9
Frame rate : 23.976 (24000/1001) FPS
Color space : YUV
Chroma subsampling : 4:2:0
Bit depth : 8 bits
Scan type : Progressive

Audio #1
ID : 4352 (0x1100)
Menu ID : 1 (0x1)
Format : PCM
Format settings, Endianness : Big
Format settings, Sign : Signed
Muxing mode : Blu-ray
Codec ID : 128
Duration : 24 min
Bit rate mode : Constant
Bit rate : 4 608 kb/s
Channel(s) : 6 channels
Channel positions : Front: L C R, Side: L R, LFE
Sampling rate : 48.0 kHz
Bit depth : 16 bits
Stream size : 798 MiB (14%)
Language : Japanese

Audio #2
ID : 4353 (0x1101)
Menu ID : 1 (0x1)
Format : DTS
Format/Info : Digital Theater Systems
Format profile : MA / Core
Mode : 16
Format settings, Endianness : Big
Muxing mode : Stream extension
Codec ID : 134
Duration : 24 min
Bit rate mode : Variable / Constant
Bit rate : Unknown / 1 509 kb/s
Channel(s) : 6 channels
Channel positions : Front: L C R, Side: L R, LFE
Sampling rate : 48.0 kHz
Frame rate : 93.750 FPS (512 spf)
Bit depth : 16 bits
Compression mode : Lossless / Lossy
Language : Japanese

Audio #3
ID : 4354 (0x1102)
Menu ID : 1 (0x1)
Format : PCM
Format settings, Endianness : Big
Format settings, Sign : Signed
Muxing mode : Blu-ray
Codec ID : 128
Duration : 24 min
Bit rate mode : Constant
Bit rate : 1 536 kb/s
Channel(s) : 2 channels
Channel positions : Front: L R
Sampling rate : 48.0 kHz
Bit depth : 16 bits
Stream size : 266 MiB (5%)
Language : Japanese

Audio #4
ID : 4355 (0x1103)
Menu ID : 1 (0x1)
Format : AC-3
Format/Info : Audio Coding 3
Mode extension : CM (complete main)
Format settings, Endianness : Big
Codec ID : 129
Duration : 24 min
Bit rate mode : Constant
Bit rate : 192 kb/s
Channel(s) : 2 channels
Channel positions : Front: L R
Sampling rate : 48.0 kHz
Frame rate : 31.250 FPS (1536 spf)
Compression mode : Lossy
Stream size : 33.3 MiB (1%)
Language : Thai

Text #1
ID : 4608 (0x1200)
Menu ID : 1 (0x1)
Format : PGS
Codec ID : 144
Duration : 24 min
Delay relative to video : 3 s 170 ms
Language : Japanese

Text #2
ID : 4609 (0x1201)
Menu ID : 1 (0x1)
Format : PGS
Codec ID : 144
Language : English

Text #3
ID : 4610 (0x1202)
Menu ID : 1 (0x1)
Format : PGS
Codec ID : 144
Language : Thai

Text #4
ID : 4611 (0x1203)
Menu ID : 1 (0x1)
Format : PGS
Codec ID : 144
Language : Thai


ไปแจกที่อื่นได้ ใส่Credit ให้ด้วย ShiRari


ผู้เข้าชมเนื้อหาถูกซ่อนไว้ คุณจะต้องแสดงความคิดเห็นก่อนจึงจะสามารถมองเห็นเนื้อหาส่วนที่ถูกซ่อนนี้ได้


1

กระทู้

4

โพสต์

145

เครดิต

Junior

Rank: 2

เครดิต
145

BAKA!! Newbiz

โพสต์ 2018-2-10 17:56:01 | ดูโพสต์ทั้งหมด
ขอบคุณครับ แต่ไม่กล้าโหลด ใหญ่เกิ้นนนนนนนนนน

1

กระทู้

2

โพสต์

2หมื่น

เครดิต

BaKa!!Master

Rank: 14Rank: 14Rank: 14Rank: 14

เครดิต
29995
โพสต์ 2018-2-10 18:12:23 | ดูโพสต์ทั้งหมด
ขอบคุณครับ

0

กระทู้

19

โพสต์

1025

เครดิต

Donator

เครดิต
1025
โพสต์ 2018-2-12 22:34:59 | ดูโพสต์ทั้งหมด
ขอบคุณครับ

 EXP: 160

0

กระทู้

60

โพสต์

900

เครดิต

BAKA!!Dll

เครดิต
900
โพสต์ 2018-2-13 21:20:26 | ดูโพสต์ทั้งหมด
ขอบใจจ่ะ         

0

กระทู้

19

โพสต์

95

เครดิต

Junior

Rank: 2

เครดิต
95
โพสต์ 2018-2-21 21:33:32 | ดูโพสต์ทั้งหมด
ขอบคุณครับ ^^

0

กระทู้

24

โพสต์

150

เครดิต

Junior

Rank: 2

เครดิต
150
โพสต์ 2018-5-3 22:21:42 | ดูโพสต์ทั้งหมด
ย้อนวัย

0

กระทู้

10

โพสต์

80

เครดิต

Junior

Rank: 2

เครดิต
80
โพสต์ 2018-6-14 01:22:37 | ดูโพสต์ทั้งหมด
ขอบใจมาก

0

กระทู้

4

โพสต์

50

เครดิต

Junior

Rank: 2

เครดิต
50
โพสต์ 2018-8-11 23:39:37 | ดูโพสต์ทั้งหมด
ขอบคุณจ้าาา

0

กระทู้

15

โพสต์

105

เครดิต

Junior

Rank: 2

เครดิต
105
โพสต์ 2018-8-18 22:30:06 | ดูโพสต์ทั้งหมด
ขอบคุงงับ
ขออภัย! คุณไม่ได้รับสิทธิ์ในการดำเนินการในส่วนนี้ กรุณาเลือกอย่างใดอย่างหนึ่ง ลงชื่อเข้าใช้ | ลงทะเบียน Sign in with facebook

รายละเอียดเครดิต

  • BaKaRadio APP

  • BaKaWorld APP

  • FANPAGE

BaKaWorld สังคมเล็กๆสำหรับคนร๊ากกกกกการ์ตูน! - เว็บบอร์ดแบ่งปันเกี่ยวกับอนิเมะที่น่าสนใจมากมาย.

Powered by Discuz! X3.4   © SINCE 2012 BaKaWorld |Sitemap